#TITLE:Zigeunerweisen;
#SUBTITLE:~Ganos original~;
#ARTIST:CJ Crew feat. SHAZZA;
#TITLETRANSLIT:;
#SUBTITLETRANSLIT:;
#ARTISTTRANSLIT:;
#CREDIT:;
#BANNER:Zigeunerweisen.png;
#BACKGROUND:Zigeunerweisen-bg.png;
#LYRICSPATH:;
#CDTITLE:GanosCD.PNG;
#MUSIC:Zigeunerweisen.mp3;
#OFFSET:0.140;
#SAMPLESTART:63.690;
#SAMPLELENGTH:12.000;
#SELECTABLE:YES;
#BPMS:0.000=180.000;
#STOPS:;
#BGCHANGES:;
// cache tags:
#FIRSTBEAT:0.500;
#LASTBEAT:287.000;
#SONGFILENAME:Songs/Chilean Keyboard Megapack 3/(Ganos) Zigeunerweisen/Zigeunerweisen.sm;
#HASMUSIC:1;
#HASBANNER:1;
#MUSICLENGTH:96.787;
// end cache tags

//---------------dance-single - Blank----------------
#NOTES:
     dance-single:
     Blank:
     Challenge:
     12:
     1.000,1.000,1.000,0.000,1.000,805.000,181.000,0.000,0.000,13.000:
0000
1001
0101
0101
0110
0110
1010
1010
,
1001
0000
1010
1010
0110
0110
0101
0101
,
0011
0000
0000
0000
1000
0100
0010
0000
0000
0000
0001
0010
0100
1000
0010
0100
,
0001
0100
0010
1000
0100
0010
0001
0010
0100
1000
0010
0100
0010
1000
0001
0010
,
1100
0101
1010
1010
0110
0110
0101
0101
,
1001
0000
0000
0000
0010
0001
0010
0000
0000
0000
0100
1000
0100
0010
0001
0100
,
0010
1000
0010
0100
0001
0010
0001
1000
0010
0100
0001
1000
0001
0100
0010
1000
,
0101
0000
1010
0000
1001
0000
0010
0001
1100
0000
0010
1000
0010
0100
1001
0000
,
1001
0000
1001
0100
0010
0001
0100
0010
1000
0010
0100
0001
1000
0100
0010
0001
,
1000
0010
1000
0001
0100
0010
1000
0100
0010
0100
1000
0001
0110
0000
1001
0000
,
0110
0000
0000
0000
1100
0000
0010
0100
1001
0000
0100
0010
0001
0100
1010
0000
,
0001
0000
1000
0100
0010
0001
1000
0010
0100
0001
1000
0100
0010
0100
1000
0010
,
0100
0001
1000
0100
0010
0001
0100
0010
1000
0001
0010
0100
1000
0000
0110
0000
,
1001
0000
0000
0000
1010
0100
1000
0100
1000
0100
1000
0100
1000
0001
1000
0001
,
0100
0010
0100
0010
1000
0001
1000
0010
0100
0000
0010
0000
0110
0000
1001
0000
,
1001
0000
1001
0000
1001
0010
0001
0010
0001
0010
0001
0010
0100
1000
0100
1000
,
0001
0100
0001
0100
0010
1000
0010
0100
0001
0000
1000
0000
1100
0000
0011
0000
,
0011
0000
0011
0000
0011
1000
0001
1000
0001
1000
0001
1000
0010
0100
0010
0100
,
0001
0010
0001
0010
0100
1000
0100
0010
0001
0000
0100
0000
0101
0000
1010
0000
,
1010
0000
0000
0000
1010
0100
1000
0100
1000
0100
1000
0100
0010
0001
0010
0001
,
1000
0010
1000
0010
0100
0001
0100
0010
1000
0000
0100
0000
1001
0000
0110
0000
,
0110
1110
0111
1110
,
0110
0000
0000
0000
0000
0000
1001
0100
0011
0000
0000
0000
1100
0000
0000
0000
,
0000
0000
1100
0000
0001
0010
0001
0010
0100
0010
0001
0100
0010
1000
0010
0100
,
0001
1000
0010
0100
0001
0010
0100
0001
0010
0100
1000
0001
1000
0000
1000
0000
,
1001
1001
0111
0000
1110
0000
0111
0000
,
0110
0000
0000
0000
0000
0000
1001
0100
1010
0000
0000
0000
0101
0000
0000
0000
,
0000
0000
1001
0000
0100
0010
1000
0100
0010
0001
0010
0100
0010
0001
0100
0010
,
1000
0010
0100
0001
1000
0100
0010
1000
0100
0010
0001
1000
0001
0000
0001
0000
,
1001
0000
1001
0000
0100
0001
0100
0010
0100
0001
0100
0010
0100
0001
0100
0010
,
0100
0001
1000
0000
1000
0001
1000
0001
0100
0010
0100
0010
1000
0100
1000
0100
,
0010
0001
0010
0001
0100
0010
0100
0010
0100
0010
0100
0010
1100
0001
1100
0001
,
1100
0000
1100
0000
0001
0010
0001
1000
0001
0010
0001
1000
0001
0010
0001
1000
,
0001
0010
0100
0000
0100
0010
0100
0010
0001
1000
0001
1000
0010
0100
0010
0100
,
0001
0010
0001
0010
0001
1000
0001
1000
0001
1000
0001
1000
0101
0010
0101
0010
,
0101
0000
1010
0100
0010
0001
0010
0100
0010
0001
0010
0100
0010
0001
0010
0100
,
0010
0001
0010
0000
1000
0010
1000
0010
0100
0001
0100
0001
0010
0100
0010
0100
,
1000
0001
1000
0001
0010
0100
0010
0100
0010
0100
0010
0100
1010
0001
1010
0001
,
1010
0000
1010
0001
1000
0100
1000
0001
1000
0100
1000
0001
1000
0100
1000
0001
,
1000
0100
0010
0000
0010
0001
0010
0001
1000
0010
1000
0010
0100
0001
0100
0001
,
1000
0100
1000
0100
0010
0001
0010
0001
0010
0001
0010
0001
1100
0010
1100
0010
,
1100
1100
1001
1001
0101
0101
1010
1010
,
0110
0000
0110
1001
0110
0000
0100
0010
,
1000
0010
0100
0010
1000
0010
0100
0100
,
0110
0110
0110
0001
1000
0001
0100
0001
,
1001
1001
1001
0110
1001
0000
0010
0100
,
0001
0100
0010
0100
0001
0100
0010
0010
,
0110
0110
0110
0000
1001
0000
1100
0011
,
0110
0000
0110
1000
0110
0000
1000
0000
0011
0000
1000
0000
0101
0000
0010
1000
,
0110
0000
0001
0100
1001
0000
0010
0100
1001
0000
0100
0000
0010
0000
1001
0000
,
1001
1001
1001
0000
0110
0000
0011
1100
,
0011
0000
1000
0100
1001
0000
0010
0000
1100
0000
0010
0000
0101
0000
0010
0100
,
1001
0000
0100
0010
1001
0000
0100
0010
0101
0000
0010
0000
0001
0000
1100
0000
,
1100
0000
1100
0000
1100
0001
1000
0001
1000
0000
0000
0000
0000
0000
0010
0100
,
0010
0100
0010
0100
0011
1000
0010
1000
0010
0000
0000
0000
0000
0000
0100
0001
,
0100
0001
0100
0001
1010
0100
0010
0000
0000
0000
0000
0000
0010
0100
1000
0000
,
0000
0000
0000
0000
1001
0100
0010
0001
0100
0010
1000
0010
0100
0001
0010
0100
,
1000
0000
0101
0000
1000
0010
1000
0010
1000
0000
0000
0000
0000
0000
0001
0100
,
0001
0100
0001
0100
0011
1000
0001
1000
0001
0000
0000
0000
0000
0000
0100
0010
,
0100
0010
0100
0010
0101
0010
0100
0000
0000
0000
0000
0000
0100
0010
0001
0000
,
0000
0000
0000
0000
1001
0010
0100
1000
0010
0100
0001
0100
0010
1000
0001
0010
,
0100
1010
1110
0000
0111
0000
1110
0000
,
0110
0000
0000
0000
0000
0000
0011
0100
1001
0000
0000
0000
0110
0000
0000
0000
,
0000
0000
1001
0000
0100
0010
0001
0100
0010
1000
0010
0100
0001
0010
0100
1000
,
0010
0100
0001
1000
0001
0010
0100
0001
0010
0100
1000
0001
1000
0000
1000
0000
,
1001
1001
1110
0000
0111
0000
1110
0000
,
1010
0110
0110
1010
1010
0101
0101
0000
,
0101
0000
0101
0000
0101
1000
0010
0100
0001
0010
0100
0010
0001
1000
0010
0100
,
0001
1000
0100
0010
0001
0010
0100
0001
0010
0100
1000
0100
0010
0001
0010
0001
,
0100
0010
0100
0010
1000
0100
0010
1000
0100
0010
0001
0100
0010
1000
0010
1000
,
0010
0100
0010
0100
0001
0010
0001
0010
0100
1000
0100
1000
0011
0000
0011
0000
,
0110
1001
0110
0000
1001
0000
1111
0000
;
